» » Karda Bir Beyaz Kuş - White Bird in a Blizzard 1080p BluRay x264 YIFY

Karda Bir Beyaz Kuş - White Bird in a Blizzard 1080p BluRay x264 YIFY

FİLMİ İNDİR

Karda Bir Beyaz Kuş - White Bird in a Blizzard 1080p BluRay x264 YIFY


Karda Bir Beyaz Kuş - White Bird in a Blizzard 1080p BluRay x264 YIFY


Noel (2004) Karda Bir Beyaz Kuş - White Bird in a Blizzard 1080p BluRay x264 YIFY








Kat Connors (Woodley) on altı yaşına gelmektedir — fiziksel olarak olgun ve cinsel açıdan gelişmektedir — annesi Eve (Eva Green) ise kendisini hafifçe dünyadan soyutlamaktadır. Eve ailenin dışına adım atınca, Katrina kendi kendine kalmış hisseder, benzersiz bir yerde ilhamlarını açığa çıkarmaktadır:.





General
Complete name                  : Karda Bir Beyaz Kuş - White Bird in a Blizzard  1080p BluRay x264 YIFY.mp4
Format                         : MPEG-4
Format profile                 : Base Media
Codec ID                       : isom
File size                      : 1.43 GiB
Duration                       : 1h 31mn
Overall bit rate mode          : Variable
Overall bit rate               : 2 249 Kbps

Video
ID                             : 1
Format                         : AVC
Format/Info                    : Advanced Video Codec
Format profile                 : [email protected]
Format settings, CABAC         : Yes
Format settings, ReFrames      : 4 frames
Codec ID                       : avc1
Codec ID/Info                  : Advanced Video Coding
Duration                       : 1h 31mn
Bit rate                       : 2 151 Kbps
Maximum bit rate               : 11.9 Mbps
Width                          : 1 920 pixels
Height                         : 816 pixels
Display aspect ratio           : 2.35:1
Frame rate mode                : Constant
Frame rate                     : 23.976 fps
Color space                    : YUV
Chroma subsampling             : 4:2:0
Bit depth                      : 8 bits
Scan type                      : Progressive
Bits/(Pixel*Frame)             : 0.057
Stream size                    : 1.37 GiB (96%)
Writing library                : x264 core 142 r2479 dd79a61
Encoded date                   : UTC 2015-01-07 04:22:26
Tagged date                    : UTC 2015-01-07 04:22:37
Color primaries                : BT.709
Matrix coefficients            : BT.709
Color range                    : Limited

Audio
ID                             : 2
Format                         : AAC
Format/Info                    : Advanced Audio Codec
Format profile                 : LC
Codec ID                       : 40
Duration                       : 1h 31mn
Bit rate mode                  : Variable
Bit rate                       : 93.8 Kbps
Maximum bit rate               : 102 Kbps
Channel(s)                     : 2 channels
Channel positions              : Front: L R
Sampling rate                  : 48.0 KHz
Compression mode               : Lossy
Stream size                    : 61.3 MiB (4%)
Language                       : English

.  



Karda Bir Beyaz Kuş - White Bird in a Blizzard 1080p BluRay x264 YIFY

Karda Bir Beyaz Kuş - White Bird in a Blizzard 1080p BluRay x264 YIFY









Karda Bir Beyaz Kuş - White Bird in a Blizzard 1080p BluRay x264 YIFY



Multi Link


Uptobox


Türkçe Altyazı

JHEBERG DOSYA NASIL İNDİRİLIR



Medyaindir Farkını Hisset Hemen Kayıt Olmak için Tıkla



FİLMİ İNDİR

Karda Bir Beyaz Kuş - White Bird in a Blizzard 1080p BluRay x264 YIFY


Allah Rızası için Bir Yorum


  • Çevrim Dışı
    seaneren
    Üye
    6 Mart 2018 01:08
    linkler kırık
Bilgi
Yorum Ekleyebilmeniz için Sitemize Kayıt Olmanız Gerekmektedir.